Si continuas navegando por Mega Descargas, aceptas las políticas de privacidadAcepto el uso de cookies
^

Strike Back T4 solo audios Latino

Strike Back T6E1 audio Latino



FICHA TÉCNICA

Título:Contraataque

SINOPSIS
La serie seguirá a la unidad antiterrorismo conocida como la ?Sección 20? en su lucha contra los nuevos enemigos de Asia y Europa.

La quinta y última temporada contará con la participación de los actores Michelle Yeoh, Will Yun Lee, Adrian Paul, James Wilby, Dustin Clare, Tim McInnerny, Wolf Kahler, Andrew Pleavin, Michael McElhatton, Leo Gregory, Max Beesley, Joseph Gatt, Masa Yamaguchi,Christian Antidormi, Eliza Bennett y Mark Griffin.

Michael J. Bassett regresará como co-productor ejecutivo, director y escritor, junto con los directores Julian Holmes y Brendan Maher, y los escritores Jack Lothian, James Dormer, Richard Zajdlic, Ed Whitmore y Tim Vaughan.
Format                      : Matroska
Format version              : Version 2
File size                   : 806 MiB
Duration                    : 47 min 18 s
Overall bit rate            : 2 382 kb/s
Writing application         : Lavf51.12.1
Writing library             : Lavf51.12.1

Video
ID                          : 1
Format                      : AVC
Format/Info                 : Advanced Video Codec
Format profile              :
Format settings, CABAC      : Yes
Format settings, ReFrames   : 1 frame
Format settings, GOP        : M=1, N=12
Codec ID                    : V_MPEG4/ISO/AVC
Duration                    : 47 min 18 s
Bit rate                    : 2 206 kb/s
Width                       : 1 280 pixels
Height                      : 720 pixels
Display aspect ratio        : 16:9
Frame rate mode             : Constant
Frame rate                  : 59.940 (60000/1001) FPS
Color space                 : RGB
Chroma subsampling          : 4:2:0
Bit depth                   : 8 bits
Scan type                   : Progressive
Bits/(Pixel*Frame)          : 0.040
Stream size                 : 746 MiB (93%)
Default                     : Yes
Forced                      : No
Color range                 : Limited
Matrix coefficients         : RGB

Audio
ID                          : 2
Format                      : MPEG Audio
Format version              : Version 1
Format profile              : Layer 3
Mode                        : Joint stereo
Mode extension              : MS Stereo
Codec ID                    : A_MPEG/L3
Codec ID/Hint               : MP3
Duration                    : 47 min 18 s
Bit rate mode               : Constant
Bit rate                    : 128 kb/s
Channel(s)                  : 2 channels
Sampling rate               : 44.1 kHz
Compression mode            : Lossy
Stream size                 : 43.3 MiB (5%)
Writing library             : LAME3.97
Default                     : Yes
Forced                      : No

T6E1
  • 0
  • 0
  • 947
  • 8
  • 0
  • Categoria Series

Buscar Descargas

Peliculas Estreno




Crea Tu Post