Si continuas navegando por Mega Descargas, aceptas las políticas de privacidadAcepto el uso de cookies
^

Arrow T6 Capitulo 10/23 Latino 1080p

Arrow
Temporada 6
Capitulo 10/23
Audio Latino
1080p WeB-DL







"Después de un violento naufragio, el playboy multimillonario Oliver Queen desapareció y se supuso muerto durante cinco años antes de ser descubierto vivo en una remota isla en el Mar del Norte de China. Regresó a casa en Star City, decidido a corregir los errores cometidos por su familia y a luchar contra la injusticia. Como Flecha Verde, él protege su ciudad con la ayuda del ex-soldado John Diggle, la experta en informática Felicity Smoak, su hermana Thea, entrenada por los vigilantes, el vice-alcalde Quentin Lance, el inventor brillante Curtis Holt y sus nuevos reclutas, Rene Ramirez y la metahumana Dinah Drake. Oliver finalmente ha solidificado y fortalecido su equipo de lucha contra el crimen sólo para amenazarlo cuando enemigos inesperados de su pasado regresan a Star City, forzando a Oliver a repensar su relación con cada miembro de su "familia".













Tamaño:  1.6gb Promedio
Resolución: 1912x1072p
Formato: MKV
Duracion: 44 min Promedio.
Codec: x264
Audio: Español Latino
Subtitulos: NO
Uploader : xeca_efe_up
Servidor: Mega

Contraseña : No Tiene

Video
ID                          : 1
Format                      : AVC
Format/Info                 : Advanced Video Codec
Format profile              :
Format settings, CABAC      : Yes
Format settings, RefFrames  : 4 frames
Codec ID                    : V_MPEG4/ISO/AVC
Duration                    : 41 min 56 s
Bit rate                    : 5 159 kb/s
Width                       : 1 912 pixels
Height                      : 1 072 pixels
Display aspect ratio        : 16:9
Frame rate mode             : Constant
Frame rate                  : 23.976 FPS
Color space                 : YUV
Chroma subsampling          : 4:2:0
Bit depth                   : 8 bits
Scan type                   : Progressive
Bits/(Pixel*Frame)          : 0.105
Stream size                 : 1.51 GiB (97%)
Language                    : English
Default                     : Yes
Forced                      : No
Color range                 : Limited
Color primaries             : BT.709
Transfer characteristics    : BT.709
Matrix coefficients         : BT.709

Audio
ID                          : 2
Format                      : AAC
Format/Info                 : Advanced Audio Codec
Format profile              : LC
Codec ID                    : A_AAC
Duration                    : 41 min 55 s
Bit rate                    : 192 kb/s
Channel(s)                  : 2 channels
Channel positions           : Front: L R
Sampling rate               : 48.0 kHz
Frame rate                  : 46.875 FPS (1024 SPF)
Compression mode            : Lossy
Delay relative to video     : -42 ms
Stream size                 : 52.0 MiB (3%)
Title                       : Latino
Language                    : Spanish
Default                     : Yes
Forced                      : No




MEGA
dividido en partes rar sin contraseña ....
  • 0
  • 0
  • 822
  • 34
  • 0
  • Categoria Series

Buscar Descargas

Peliculas Estreno




Crea Tu Post