Si continuas navegando por Mega Descargas, aceptas las políticas de privacidadAcepto el uso de cookies
^

The Flash T4 Capitulo 10/23 Latino 1080p

The Flash
Temporada 4
Capitulo 10 de 23
Audio Latino
1080p Web-DL





La cuarta temporada de la serie de televisión estadounidense The Flash , que se basa en el personaje de DC Comics Barry Allen / Flash , sigue a un investigador de la escena del crimen con velocidad sobrehumana que combate a criminales, incluidos otros que también han adquirido habilidades sobrehumanas. Está ambientado en Arrowverse , comparte continuidad con otras series de televisión del universo y es un spin-off de Arrow . La temporada está producida por Berlanti Productions , Warner Bros. Television y DC Entertainment , con Andrew Kreisberg y Todd Helbing actuando como showrunners .

La temporada fue ordenada en enero de 2017, y el rodaje comenzó ese mes de julio. Grant Gustin interpreta a Barry, con los miembros principales del elenco Candice Patton , Danielle Panabaker , Carlos Valdés , Keiynan Lonsdale , Tom Cavanagh y Jesse L. Martin que también regresan de temporadas anteriores, y se les unirá Neil Sandilands.

La cuarta temporada comenzó a transmitirse el 10 de octubre de 2017, en The CW .















Tamaño:  1.6gb Promedio
Resolución: 1912x1072p
Formato: MKV
Duracion: 44 min Promedio.
Codec: x264
Audio: Español Latino
Subtitulos: NO
Uploader : xeca_efe_up
Servidor: Mega

Contraseña : No Tiene

Video
ID                          : 2
Format                      : AVC
Format/Info                 : Advanced Video Codec
Format profile              :
Format settings, CABAC      : Yes
Format settings, RefFrames  : 4 frames
Codec ID                    : V_MPEG4/ISO/AVC
Duration                    : 42 min 18 s
Bit rate                    : 5 151 kb/s
Width                       : 1 912 pixels
Height                      : 1 072 pixels
Display aspect ratio        : 16:9
Frame rate mode             : Constant
Frame rate                  : 23.976 (23976/1000) FPS
Color space                 : YUV
Chroma subsampling          : 4:2:0
Bit depth                   : 8 bits
Scan type                   : Progressive
Bits/(Pixel*Frame)          : 0.105
Stream size                 : 1.52 GiB (90%)
Language                    : English
Default                     : Yes
Forced                      : No
Color range                 : Limited
Color primaries             : BT.709
Transfer characteristics    : BT.709
Matrix coefficients         : BT.709


Audio #1
ID                          : 3
Format                      : AC-3
Format/Info                 : Audio Coding 3
Format settings, Endianness : Big
Codec ID                    : A_AC3
Duration                    : 42 min 18 s
Bit rate mode               : Constant
Bit rate                    : 192 kb/s
Channel(s)                  : 2 channels
Channel positions           : Front: L R
Sampling rate               : 48.0 kHz
Frame rate                  : 31.250 FPS (1536 SPF)
Bit depth                   : 16 bits
Compression mode            : Lossy
Delay relative to video     : -42 ms
Stream size                 : 58.1 MiB (3%)
Title                       : Español Latino
Language                    : Spanish
Service kind                : Complete Main
Default                     : Yes
Forced                      : No



MEGA
dividido en partes rar sin contraseña ..
  • 0
  • 0
  • 2937
  • 38
  • 0
  • Categoria Series

Buscar Descargas

Peliculas Estreno




Crea Tu Post